#TITLE:Gee (지);
#SUBTITLE:Tony;
#ARTIST:Girl's Generation;
#TITLETRANSLIT:;
#SUBTITLETRANSLIT:;
#ARTISTTRANSLIT:;
#CREDIT:Tony;
#BANNER:gee-bn.jpg;
#BACKGROUND:gee-bg.jpg;
#LYRICSPATH:;
#CDTITLE:gee.png;
#MUSIC:Gee.ogg;
#OFFSET:0.800;
#SAMPLESTART:100.000;
#SAMPLELENGTH:12.000;
#SELECTABLE:YES;
#DISPLAYBPM:200.000;
#BPMS:0.000=100.000,20.000=200.000,112.000=399.998,116.000=200.000,180.000=100.000,180.667=400.000,182.000=200.000,212.000=100.000,212.667=400.000,214.000=200.000,312.000=399.998,316.000=200.000,380.000=100.000,380.667=400.000,382.000=200.000,412.000=100.000,412.667=400.000,414.000=200.000,444.000=50.000,452.000=100.000,464.000=49.999,465.000=99.999,467.000=199.999,482.000=400.000,482.646=100.000,483.000=200.000,531.000=100.000,531.667=400.000,533.000=200.000,563.000=100.000,563.667=400.000,565.000=200.000,593.000=399.998;
#STOPS:112.000=0.140
,113.000=0.080
,113.500=0.140
,114.500=0.080
,115.000=0.080
,115.500=0.080
,312.000=0.140
,313.000=0.080
,313.500=0.140
,314.500=0.080
,315.000=0.080
,315.500=0.080
;
#BGCHANGES:;
// cache tags:
#FIRSTBEAT:2.000;
#LASTBEAT:604.000;
#SONGFILENAME:songs/SDO Latino/Gee/Gee.sm;
#HASMUSIC:1;
#HASBANNER:1;
#MUSICLENGTH:202.344;
// end cache tags

//---------------dance-single - ----------------
#NOTES:
     dance-single:
     :
     Hard:
     18:
     1.000,1.000,1.000,1.000,0.274,1058.000,569.000,467.000,0.000,342.000:
0000
0000
0000
0000
2000
0000
0000
3001
,
0020
0000
0000
0000
0230
0000
0000
0010
,
1312
0000
0000
0000
0000
0000
0000
0000
0113
0000
0000
1100
0000
0000
0110
0000
,
0012
0000
0000
0000
0000
0000
0003
0110
,
2002
0000
3003
2002
0000
0000
0110
3003
2002
0000
0000
3003
1001
0000
0000
0000
,
2001
0000
0001
0000
3001
0000
0001
0001
,
1010
0000
1000
1000
1010
0000
0010
0000
,
0021
0000
1100
0000
0000
0000
1030
1000
,
1100
0000
0100
0100
1100
0000
0011
0000
,
2100
0000
0011
0000
0000
0000
3001
0001
,
0101
0000
1000
1000
1100
0000
1001
0000
,
1110
1000
0111
0001
,
1011
0000
0000
0000
1000
0100
1000
0010
1000
0001
1000
0001
0110
0000
0000
0000
,
1100
0110
1100
0110
0011
0000
0101
0010
,
0000
1000
0100
0010
0011
0000
1110
0000
,
0012
0100
1013
0001
0110
0000
1000
0011
,
0000
0000
0110
0011
1100
0000
0101
0000
,
1010
0000
0101
0000
1010
0100
0010
0001
,
0110
0000
0110
1100
1000
0110
0001
0010
,
0102
0000
1010
0003
0101
0010
0100
1000
,
1100
0000
0110
1100
0001
1010
0101
0001
,
1021
1000
0001
1030
1100
0000
0110
1100
,
0000
0001
1010
0100
0110
0000
0110
0000
,
2101
0010
0101
3100
1100
0000
0110
0011
,
0000
0000
0110
1100
0102
0000
1013
0000
,
1100
0000
0110
0000
1100
0010
0101
1000
,
1100
0000
0110
0011
1010
0100
0001
0010
,
0201
0000
1010
0300
0101
0001
1100
0010
,
1001
0000
0001
1000
0000
1000
0001
1000
,
1221
0000
2300
3230
1302
2003
3200
0320
,
0131
1010
1100
0110
,
0102
0023
0230
1320
2031
3200
0320
2031
,
3012
0203
2310
3002
0023
2030
3201
0300
,
1100
0011
1100
0011
2100
3012
1203
2301
,
3100
0020
0231
2300
3021
0230
0312
0003
,
2000
0000
0200
3000
0020
0300
0002
0030
,
2100
0003
0012
0000
3200
0000
0023
0300
,
1101
0000
0131
0000
1200
0302
2013
3200
,
0320
0031
2010
3100
2120
0030
0002
3000
,
1210
2000
3023
0032
2303
3200
1320
0032
,
2103
3020
0132
2003
3110
0000
2100
0000
,
0012
3020
2030
3200
0323
2030
3102
0023
,
1230
0300
1100
0110
0000
0001
1000
1000
,
0110
1000
0001
1000
0111
0000
0110
0000
1001
0000
0100
0010
0100
0000
0010
0000
,
0120
0000
0000
0000
0000
0000
0100
0000
0100
0001
1030
0100
1000
0001
0100
0010
,
1001
0000
0000
0000
1111
0000
0120
2130
,
0002
3023
0231
2300
3012
0023
0230
0300
,
2100
3002
0123
0230
2301
3200
0321
0032
,
2203
0000
3000
0000
1000
0300
0100
0000
0110
0000
0000
0000
0011
0000
0000
0000
,
1200
0320
2031
3200
1320
2030
3020
0032
,
1103
0110
0011
0110
,
1100
0000
0010
0001
0010
0000
1000
0000
0110
0000
0010
0100
0010
0000
1001
0000
,
1000
0100
0010
0001
1100
0000
0010
0000
1000
0010
0100
0001
1000
0001
0100
0010
,
1001
0000
0000
0000
1111
0000
0120
2130
,
3002
0023
2130
3200
1320
0032
0123
0030
,
1100
0002
0213
2300
3211
0320
0132
0023
,
2130
0000
3000
1100
0110
0000
0101
0000
,
2020
0032
0203
0320
3002
0203
2301
3230
,
2310
0000
0110
3001
1100
0000
0110
0000
,
1012
0000
1000
0100
0010
0000
0010
0000
1103
0000
0010
0001
0010
0000
0100
0000
,
1001
0100
0010
0001
1100
0000
0010
0000
1001
0000
0010
0000
0100
0000
0010
0000
,
1101
1000
0111
0001
,
1110
0000
0000
0000
1000
0100
1000
0010
1000
0001
1000
0010
1000
0010
1000
0100
,
0121
0100
1000
1030
1100
0000
0101
0010
,
0000
1000
0100
0010
0011
0000
1100
0000
,
1201
1000
1010
0301
0110
0000
1100
0110
,
0000
0000
0110
1001
0011
0000
2010
0000
,
0101
0000
3110
0000
0011
0001
0101
1000
,
1100
0000
0110
1100
0110
0010
0101
0001
,
1002
0000
1010
0003
1010
1000
1100
0010
,
0101
0000
1010
0101
0011
0010
0101
1000
,
1020
0001
0101
1030
0110
0000
0101
1010
,
0000
1000
0101
0010
0110
0000
1011
0000
,
2110
0001
0101
3100
1100
0000
0110
0011
,
0000
0000
0110
1001
0101
0000
1200
0000
,
1010
0300
0101
0000
1010
0100
0010
0001
,
0110
0000
0110
1100
1000
0110
0001
0010
,
0102
0000
1010
0003
0101
0010
0100
1000
,
1101
0000
0110
1001
0000
1001
0110
1001
,
1221
0000
1032
0323
2130
3102
1203
0320
,
1032
0203
2310
3200
0312
2003
3110
0000
,
0102
2003
3102
1023
0231
2300
3120
2031
,
3012
0203
2310
3002
0123
2030
3201
0300
,
1100
0011
2100
3012
1203
0312
1203
2301
,
3100
0020
0231
2300
3021
0230
0312
0003
,
2100
0000
0110
0000
0002
3000
0200
0000
,
0023
0000
2300
0000
0132
0000
3020
0003
,
1101
0000
0131
2000
3210
0302
2013
3200
,
1320
0231
2310
3100
2120
0030
0002
3000
,
1210
2000
3023
0032
2313
3200
1320
0032
,
2103
3020
0132
2003
3110
0000
2100
0000
,
0012
3020
2030
3200
1323
2030
3102
0023
,
1230
0300
1100
0110
0000
0001
1000
1000
,
1001
0010
0100
0010
1101
0000
1001
0000
0110
0000
0001
1000
0001
0000
1000
0000
,
0012
0000
0000
0000
0000
0000
0100
0000
1103
0010
0001
0100
1000
0010
0100
0001
,
0110
0000
0000
0000
1111
0000
0120
2130
,
3201
0302
0213
2300
3012
1023
1230
0300
,
2100
0002
3123
2000
3231
0020
1332
0020
,
2133
0000
3101
1100
0110
0000
0011
0000
,
1200
0320
2031
3200
1320
2030
3020
0032
,
1203
0302
2113
3200
0312
0023
0131
0000
,
1101
0000
1000
0001
1000
0000
1001
0000
0110
0000
0010
0100
0010
0000
0101
0000
,
1001
0100
0010
0001
1100
0000
0010
0000
1100
0001
0010
0100
1010
0001
0110
1001
,
0110
0000
0000
0000
1111
2000
3121
0230
,
1302
0023
2130
3200
1320
0032
0123
0030
,
2002
0203
3322
0203
1332
0020
2233
3020
,
2332
0103
0001
3011
0110
0000
0101
0000
,
2021
3200
0302
0203
1032
0023
2030
3020
,
0332
0000
0000
0000
0000
0000
0110
0000
0003
1001
0000
0000
1100
0000
0000
0000
0000
0000
0110
0000
0000
0000
0000
0000
,
1012
0000
1000
0100
1010
0000
0010
0000
1103
0000
1100
0011
1100
0000
0101
0000
,
1001
0100
0010
0001
1100
0000
0010
0000
1000
0001
1000
0001
1000
0100
1000
0100
,
1120
0000
0000
0000
0000
0000
0000
0000
0000
0000
0000
0000
0101
0000
1100
0000
0131
1000
0000
0000
1100
0000
0000
0000
0110
0000
0000
0000
0011
0000
0000
0000
0112
0000
0000
0000
0000
0000
0000
0000
0000
0000
0000
0000
1100
0000
0110
0000
1013
0001
0000
0000
0110
0000
0000
0000
0200
0000
0000
0000
2300
0000
0000
0000
,
3122
0000
0000
0000
2130
0000
0000
0000
3120
0000
0000
0000
1230
0000
0000
0000
2313
0001
0000
0000
0000
0000
0000
0000
3000
0000
0000
0000
0220
0000
0000
0000
2332
0000
0000
0000
3003
0000
2002
0000
0000
0000
0000
0000
3113
0000
0000
0000
2002
0000
0000
0000
3003
0000
0000
0000
2002
0000
0000
0000
3003
0000
0000
0000
,
1101
0000
0100
0000
1100
0000
1000
0000
1100
0000
0100
0100
1100
0000
0100
0000
,
0110
0000
0001
0001
0101
0000
0001
0000
0011
0000
1000
1000
1010
0000
0001
0000
,
0110
0110
0110
0110
0110
0110
0110
0110
,
2001
0010
0100
0010
0001
0010
0100
0010
0001
0010
0100
0010
0001
0010
0100
0010
3001
0000
0000
0000
0000
0000
0000
0000
1000
0000
0000
0000
0000
0000
0000
0000
1100
0000
0000
0000
0000
0000
0000
0000
0010
0000
0000
0000
0000
0000
0000
0000
1010
0000
0000
0000
0000
0000
0000
0000
0000
0000
0000
0000
0000
0000
0000
0000
,
0101
0000
1011
0000
0120
2130
0000
3002
,
0213
2300
3012
1023
1230
0300
2120
0230
,
3312
2000
3213
0012
2323
3032
1223
0000
,
1331
1100
0110
0000
0011
0000
1201
0320
,
2032
3200
1323
2031
3120
0032
1203
0320
,
2131
0000
3200
0000
0312
0000
0023
0000
0131
0000
0000
0000
1101
0000
0110
1001
,
0110
0000
1001
0000
0110
0000
1010
0101
1010
0000
0101
0000
1001
0100
0010
0001
,
1100
0010
1012
0000
2110
0003
0121
3000
,
1101
0000
0030
0000
1101
0000
2000
0000
3121
0000
0230
0000
1002
0000
0023
0300
,
2130
3200
1320
0032
0123
0030
2002
0203
,
3322
0203
1332
0020
2233
3020
2332
3100
,
0010
1103
0110
0000
0101
0000
2021
3200
,
1302
2103
0132
0020
3233
0320
2031
0000
,
3110
0000
1001
0000
1100
0000
0000
0000
0110
0000
0000
0000
1021
0000
0100
1000
,
0100
0000
1001
0000
1130
0000
0100
0011
1100
0000
0101
0000
1001
0100
0010
0001
,
1100
0000
1010
0000
1000
0001
1000
0001
1000
0100
1000
0100
1101
0000
0000
0000
,
0000
0000
1111
1002
0123
2130
3201
0302
,
0213
2300
3012
1023
1230
0300
2100
0002
,
3123
2000
3231
0020
1332
0020
2133
0000
,
3101
1100
0110
0000
0011
0000
1202
0320
,
2133
0020
3232
2300
3123
0232
2013
3302
,
2113
0000
3200
0000
0312
0000
0023
0000
0131
0000
0000
0000
1101
0000
1000
0001
,
1000
0000
1001
0000
0110
0000
0010
0100
0010
0000
0101
0000
1001
0100
0010
0001
,
1100
0000
0010
0000
1100
0001
0010
0100
1010
0001
0110
1001
0110
0000
0000
0000
,
0000
0000
1111
0000
0120
2130
3201
0302
,
0213
2300
3012
1023
1230
0300
2102
0200
,
0323
0000
0002
0000
0233
0000
0020
0000
0032
0300
3020
0000
2133
0000
0000
0000
,
3101
1100
0110
0000
0011
0000
1201
0020
,
2031
3002
1320
2030
3123
1032
2023
0000
,
0101
0000
3230
0000
0312
0000
0023
0000
0131
0000
0000
0000
1101
0000
1000
0001
,
1000
0000
1001
0000
0110
0000
0010
0100
0010
0000
0101
0000
1001
0100
0010
0001
,
1100
0010
1100
0001
0010
0100
1010
0001
,
0110
1001
0220
0000
0000
0000
0000
0000
,
0000
0000
0000
0000
,
0330
0000
0000
0000
;
